<?xml version="1.0" standalone="no"?>
<!DOCTYPE svg PUBLIC "-//W3C//DTD SVG 1.1//EN" "http://www.w3.org/Graphics/SVG/1.1/DTD/svg11.dtd" >
<svg xmlns="http://www.w3.org/2000/svg" xmlns:xlink="http://www.w3.org/1999/xlink" version="1.1">
<metadata></metadata>
<defs>
<font id="ds-digitalbold" horiz-adv-x="1042" >
<font-face units-per-em="2048" ascent="1638" descent="-410" />
<missing-glyph horiz-adv-x="484" />
<glyph horiz-adv-x="0" />
<glyph unicode="&#xd;" horiz-adv-x="484" />
<glyph unicode=" "  horiz-adv-x="484" />
<glyph unicode="&#x09;" horiz-adv-x="484" />
<glyph unicode="&#xa0;" horiz-adv-x="484" />
<glyph unicode="!" horiz-adv-x="584" d="M195 -88h194v-173h-194v173zM195 194v299l122 121l72 -72v-542zM195 810v298l194 195v-542l-72 -74z" />
<glyph unicode="&#x22;" horiz-adv-x="633" d="M88 1044v259h193v-259l-97 -98zM350 1044v259h196v-259l-97 -98z" />
<glyph unicode="#" horiz-adv-x="1238" d="M108 426l97 97h104l97 -97l-97 -96h-104zM108 789l97 97h104l97 -97l-97 -96h-104zM344 145v147l97 97l99 -97v-147l-99 -97zM344 559v98l97 97l99 -97v-98l-99 -97zM344 923v164l97 99l99 -99v-164l-99 -96zM478 426l97 97h88l97 -97l-97 -96h-88zM478 789l97 97h88 l97 -97l-97 -96h-88zM698 145v147l99 97l97 -97v-147l-97 -97zM698 559v98l99 97l97 -97v-98l-97 -97zM698 923v164l99 99l97 -99v-164l-97 -96zM832 426l97 97h104l97 -97l-97 -96h-104zM832 789l97 97h104l97 -97l-97 -96h-104z" />
<glyph unicode="$" d="M108 97l97 97h499l97 -97l-97 -97h-499zM108 761v311l97 97l97 -97v-262l-121 -123zM218 652l97 96h413l97 -96l-97 -97h-413zM242 1206l97 97h497l97 -97l-97 -98h-497zM402 -43h194v-158l-97 -97l-97 97v158zM402 1346v156l97 97l97 -97v-156h-194zM739 231v262 l121 121l73 -72v-311l-97 -97z" />
<glyph unicode="%" horiz-adv-x="1431" d="M108 920l97 -91l97 91v156l-97 99l-97 -99v-156zM242 788l97 96h102l99 -96l-99 -99h-102zM242 1210l97 99h102l99 -99l-99 -97h-102zM300 141l277 481l168 46l24 -100l-398 -691zM478 920v156l97 99l97 -99v-156l-97 -91zM735 896l254 437l264 71l-374 -648l-99 -24z M758 242l97 -91l98 91v149l-98 97l-97 -97v-149zM892 110l98 97h101l97 -97l-97 -97h-101zM892 523l98 99h101l97 -99l-97 -97h-101zM1128 242v149l97 97l97 -97v-149l-97 -91z" />
<glyph unicode="&#x26;" horiz-adv-x="1113" d="M108 231v311l73 72l121 -121v-262l-97 -97zM108 761v311l97 97l97 -97v-262l-121 -123zM218 652l97 96h413l97 -96l-97 -97h-413zM242 97l97 97h365l97 -97l-97 -97h-365zM242 1206l97 97h365l97 -97l-97 -98h-365zM739 231v262l121 121l73 -72v-311l-97 -97zM739 810v78 l97 97l97 -97v-127l-73 -74zM897 652l97 96l97 -96l-97 -97z" />
<glyph unicode="'" horiz-adv-x="368" d="M88 1044v259h193v-259l-97 -98z" />
<glyph unicode="(" horiz-adv-x="642" d="M88 231l96 -97l97 97v262l-121 121l-72 -72v-311zM88 761v311l96 97l97 -97v-262l-121 -123zM220 97l98 97h86l196 -194h-282zM220 1206l98 97h282l-196 -195h-86z" />
<glyph unicode=")" horiz-adv-x="642" d="M43 0l195 194h88l97 -97l-97 -97h-283zM43 1303h283l97 -97l-97 -98h-88zM361 231v262l123 121l73 -72v-311l-97 -97zM361 810v262l99 97l97 -97v-311l-73 -74z" />
<glyph unicode="*" horiz-adv-x="996" d="M88 592l35 132l138 77h193l-106 -175l-128 -69zM88 1065l132 35l128 -70l106 -174h-193l-138 77zM400 451v149l97 180l99 -173v-156l-99 -97zM400 1054v152l97 97l99 -97v-152l-99 -177zM542 810l104 -175l129 -78l134 35l-38 132l-134 86h-195zM542 862l104 173l129 65 l134 -35l-38 -132l-134 -71h-195z" />
<glyph unicode="+" horiz-adv-x="962" d="M88 652l96 96h164l97 -96l-97 -97h-164zM384 354v164l98 96l97 -96v-164l-97 -97zM384 786v164l98 96l97 -96v-164l-97 -99zM518 652l96 96h164l97 -96l-97 -97h-164z" />
<glyph unicode="," horiz-adv-x="368" d="M88 -119v259h193v-259l-97 -97z" />
<glyph unicode="-" horiz-adv-x="962" d="M88 652l96 96h594l97 -96l-97 -97h-594z" />
<glyph unicode="." horiz-adv-x="368" d="M88 0v194h193v-194h-193z" />
<glyph unicode="/" horiz-adv-x="1003" d="M45 188l245 419l168 43l26 -99l-367 -629zM449 881l245 422l269 69l-369 -631l-99 -26z" />
<glyph unicode="0" d="M108 37v505l73 72l121 -121v-262zM108 761v505l194 -194v-262l-121 -123zM145 0l194 194h365l193 -194h-752zM145 1303h752l-193 -195h-365zM739 231v262l121 121l73 -72v-505zM739 810v262l194 194v-505l-73 -74z" />
<glyph unicode="1" horiz-adv-x="584" d="M195 231v262l122 121l72 -72v-505zM195 810v262l194 194v-505l-72 -74z" />
<glyph unicode="2" d="M108 37v505l73 72l121 -121v-262zM145 0l194 194h365l193 -194h-752zM145 1303h752l-193 -195h-365zM218 652l97 96h413l97 -96l-97 -97h-413zM739 810v262l194 194v-505l-73 -74z" />
<glyph unicode="3" d="M145 0l194 194h365l193 -194h-752zM145 1303h752l-193 -195h-365zM218 652l97 96h413l97 -96l-97 -97h-413zM739 231v262l121 121l73 -72v-505zM739 810v262l194 194v-505l-73 -74z" />
<glyph unicode="4" d="M108 761v505l194 -194v-262l-121 -123zM218 652l97 96h413l97 -96l-97 -97h-413zM739 231v262l121 121l73 -72v-505zM739 810v262l194 194v-505l-73 -74z" />
<glyph unicode="5" d="M108 761v505l194 -194v-262l-121 -123zM145 0l194 194h365l193 -194h-752zM145 1303h752l-193 -195h-365zM218 652l97 96h413l97 -96l-97 -97h-413zM739 231v262l121 121l73 -72v-505z" />
<glyph unicode="6" d="M108 37v505l73 72l121 -121v-262zM108 761v505l194 -194v-262l-121 -123zM145 0l194 194h365l193 -194h-752zM145 1303h752l-193 -195h-365zM218 652l97 96h413l97 -96l-97 -97h-413zM739 231v262l121 121l73 -72v-505z" />
<glyph unicode="7" d="M145 1303h752l-193 -195h-365zM739 231v262l121 121l73 -72v-505zM739 810v262l194 194v-505l-73 -74z" />
<glyph unicode="8" d="M108 37v505l73 72l121 -121v-262zM108 761v505l194 -194v-262l-121 -123zM145 0l194 194h365l193 -194h-752zM145 1303h752l-193 -195h-365zM218 652l97 96h413l97 -96l-97 -97h-413zM739 231v262l121 121l73 -72v-505zM739 810v262l194 194v-505l-73 -74z" />
<glyph unicode="9" d="M108 761v505l194 -194v-262l-121 -123zM145 0l194 194h365l193 -194h-752zM145 1303h752l-193 -195h-365zM218 652l97 96h413l97 -96l-97 -97h-413zM739 231v262l121 121l73 -72v-505zM739 810v262l194 194v-505l-73 -74z" />
<glyph unicode=":" horiz-adv-x="454" d="M130 0v194h196v-194h-196zM130 892v193h196v-193h-196z" />
<glyph unicode=";" horiz-adv-x="454" d="M130 -119v259h196v-259l-99 -97zM130 892v193h196v-193h-196z" />
<glyph unicode="&#x3c;" horiz-adv-x="729" d="M88 624h273l281 -272v-136h-137zM88 676l417 411h137v-137l-281 -274h-273z" />
<glyph unicode="=" horiz-adv-x="962" d="M88 486l96 97h594l97 -97l-97 -99h-594zM88 817l96 99h594l97 -99l-97 -96h-594z" />
<glyph unicode="&#x3e;" horiz-adv-x="729" d="M88 216v136l279 272h275l-417 -408h-137zM88 950v137h137l417 -411h-275z" />
<glyph unicode="?" d="M108 0v542l73 72l121 -121v-299zM108 -73v-193h194v193h-194zM108 1303h596l97 -97l-97 -98h-402zM218 652l97 96h413l97 -96l-97 -97h-413zM739 810v262l97 97l97 -97v-311l-73 -74z" />
<glyph unicode="@" horiz-adv-x="1260" d="M108 231v311l73 72l121 -121v-262l-97 -97zM108 761v311l97 97l97 -97v-262l-121 -123zM242 97l97 97h748l99 -97l-99 -97h-748zM242 1206l97 97h774l-193 -195h-581zM411 542v212l75 73l121 -121v-164l-97 -97zM523 864l97 97h324l97 -97l-97 -97h-324zM547 408l97 98 h276l193 -195h-469zM955 542v164l123 121l73 -73v-406zM955 1022v50l196 194v-292l-73 -75z" />
<glyph unicode="A" d="M108 0v542l73 72l121 -121v-299zM108 761v505l194 -194v-262l-121 -123zM145 1303h752l-193 -195h-365zM218 652l97 96h413l97 -96l-97 -97h-413zM739 194v299l121 121l73 -72v-542zM739 810v262l194 194v-505l-73 -74z" />
<glyph unicode="B" d="M108 37v505l73 72l121 -121v-262zM108 761v505l194 -194v-262l-121 -123zM145 0l194 194h365l97 -97l-97 -97h-559zM145 1303h559l97 -97l-97 -98h-365zM218 652l97 96h413l97 -96l-97 -97h-413zM739 231v262l121 121l73 -72v-311l-97 -97zM739 810v262l97 97l97 -97 v-311l-73 -74z" />
<glyph unicode="C" d="M108 231l97 -97l97 97v262l-121 121l-73 -72v-311zM108 761v311l97 97l97 -97v-262l-121 -123zM242 97l97 97h400l194 -194h-594zM242 1206l97 97h594l-194 -195h-400z" />
<glyph unicode="D" d="M108 37v505l73 72l121 -121v-262zM108 761v505l194 -194v-262l-121 -123zM145 0l194 194h365l97 -97l-97 -97h-559zM145 1303h559l97 -97l-97 -98h-365zM739 231v262l121 121l73 -72v-311l-97 -97zM739 810v262l97 97l97 -97v-311l-73 -74z" />
<glyph unicode="E" d="M108 37v505l73 72l121 -121v-262zM108 761v505l194 -194v-262l-121 -123zM145 0l194 194h400l194 -194h-788zM145 1303h788l-194 -195h-400zM218 652l97 96h413l97 -96l-97 -97h-413z" />
<glyph unicode="F" d="M108 37v505l73 72l121 -121v-262zM108 761v505l194 -194v-262l-121 -123zM145 1303h788l-194 -195h-400zM218 652l97 96h413l97 -96l-97 -97h-413z" />
<glyph unicode="G" d="M108 231v339l73 72l121 -121v-290l-97 -97zM108 788v284l97 97l97 -97v-236l-121 -121zM242 97l97 -97h365l97 97l-97 97h-365zM242 1206l97 97h594l-194 -195h-400zM411 678l97 98h220l97 -98l-97 -97h-220zM739 231v290l121 121l73 -72v-339l-97 -97z" />
<glyph unicode="H" d="M108 0v542l73 72l121 -121v-299zM108 761v542l194 -195v-298l-121 -123zM218 652l97 96h413l97 -96l-97 -97h-413zM739 194v299l121 121l73 -72v-542zM739 810v298l194 195v-542l-73 -74z" />
<glyph unicode="I" horiz-adv-x="584" d="M195 194v299l122 121l72 -72v-542zM195 810v298l194 195v-542l-72 -74z" />
<glyph unicode="J" d="M108 231l97 -97l97 97v175l-121 123l-73 -75v-223zM242 97l97 97h365l97 -97l-97 -97h-365zM739 231v262l121 121l73 -72v-311l-97 -97zM739 810v298l194 195v-542l-73 -74z" />
<glyph unicode="K" d="M108 0v542l73 72l121 -121v-299zM108 761v542l194 -195v-298l-121 -123zM218 652l97 96h413l97 -96l-97 -97h-413zM350 801v139l365 363h138v-139l-365 -363h-138zM739 194v299l121 121l73 -72v-542z" />
<glyph unicode="L" d="M108 37v505l73 72l121 -121v-262zM108 761v542l194 -195v-298l-121 -123zM145 0l194 194h400l194 -194h-788z" />
<glyph unicode="M" d="M108 0v542l73 72l121 -121v-299zM108 761v505l194 -194v-262l-121 -123zM145 1303h752l-193 -195h-365zM430 585v381l99 97l97 -97v-381l-97 -99zM739 194v299l121 121l73 -72v-542zM739 810v262l194 194v-505l-73 -74z" />
<glyph unicode="N" d="M108 0v542l73 72l121 -121v-299zM108 761v542l194 -195v-298l-121 -123zM160 1303h283l251 -266v-140h-137zM739 194v299l121 121l73 -72v-542zM739 810v298l194 195v-542l-73 -74z" />
<glyph unicode="O" d="M108 231l97 -97l97 97v262l-121 121l-73 -72v-311zM108 761v311l97 97l97 -97v-262l-121 -123zM242 97l97 97h365l97 -97l-97 -97h-365zM242 1206l97 97h365l97 -97l-97 -98h-365zM739 231v262l121 121l73 -72v-311l-97 -97zM739 810v262l97 97l97 -97v-311l-73 -74z" />
<glyph unicode="P" d="M108 0v542l73 72l121 -121v-299zM108 761v505l194 -194v-262l-121 -123zM145 1303h559l97 -97l-97 -98h-365zM218 652l97 96h413l97 -96l-97 -97h-413zM739 810v262l97 97l97 -97v-311l-73 -74z" />
<glyph unicode="Q" d="M108 231l97 -97l97 97v288l-121 121l-73 -72v-337zM108 788v284l97 97l97 -97v-236l-121 -121zM242 97l97 97h190l97 -97l-97 -97h-190zM242 1206l97 97h365l97 -97l-97 -98h-365zM564 231v140h140l229 -231v-140h-138zM739 406v113l121 121l73 -72v-162l-97 -97z M739 836v236l97 97l97 -97v-284l-73 -73z" />
<glyph unicode="R" d="M108 0v542l73 72l121 -121v-299zM108 761v505l194 -194v-262l-121 -123zM145 1303h559l97 -97l-97 -98h-365zM218 652l97 96h413l97 -96l-97 -97h-413zM389 372v138h140l372 -370v-140h-140zM739 810v262l97 97l97 -97v-311l-73 -74z" />
<glyph unicode="S" d="M108 97l97 97h499l97 -97l-97 -97h-499zM108 761v311l97 97l97 -97v-262l-121 -123zM218 652l97 96h413l97 -96l-97 -97h-413zM242 1206l97 97h497l97 -97l-97 -98h-497zM739 231v262l121 121l73 -72v-311l-97 -97z" />
<glyph unicode="T" d="M65 1206l97 97h717l98 -97l-98 -98h-717zM424 89v404l122 121l72 -72v-453l-97 -96zM424 810v149l97 97l97 -97v-198l-72 -74z" />
<glyph unicode="U" d="M108 231l97 -97l97 97v262l-121 121l-73 -72v-311zM108 761v542l194 -195v-298l-121 -123zM242 97l97 97h365l97 -97l-97 -97h-365zM739 231v262l121 121l73 -72v-311l-97 -97zM739 810v298l194 195v-542l-73 -74z" />
<glyph unicode="V" horiz-adv-x="999" d="M108 93v469l73 73l121 -123v-419l-97 -99zM108 780v523l194 -195v-278l-121 -123zM363 93v138l344 370l153 34l-13 -171l-346 -371h-138zM739 830v278l194 195v-523l-73 -73z" />
<glyph unicode="W" d="M108 37v505l73 72l121 -121v-262zM108 761v542l194 -195v-298l-121 -123zM145 0l194 194h365l193 -194h-752zM430 335v384l99 98l97 -98v-384l-97 -97zM739 231v262l121 121l73 -72v-505zM739 810v298l194 195v-542l-73 -74z" />
<glyph unicode="X" horiz-adv-x="999" d="M108 0v190l279 424h99v-214l-263 -400h-115zM108 1113v190h114l264 -402v-214h-99zM559 402v212h98l276 -424v-190h-112zM559 687v214l262 402h112v-190l-276 -426h-98z" />
<glyph unicode="Y" d="M108 761l73 -74l121 123v298l-194 195v-542zM181 97l96 97h427l97 -97l-97 -97h-427zM218 652l97 96h413l97 -96l-97 -97h-413zM739 231v262l121 121l73 -72v-311l-97 -97zM739 810v298l194 195v-542l-73 -74z" />
<glyph unicode="Z" d="M108 97l97 97h512l193 -194h-705zM108 1303h728l97 -97l-97 -98h-534zM205 238v134l177 261l104 9l22 -169l-158 -235h-145zM501 773l197 290h138v-143l-155 -231l-173 -19z" />
<glyph unicode="[" horiz-adv-x="642" d="M88 37v505l72 72l121 -121v-262zM88 761v505l193 -194v-262l-121 -123zM123 0l195 194h86l196 -194h-477zM123 1303h477l-196 -195h-86z" />
<glyph unicode="\" horiz-adv-x="1005" d="M43 1372l266 -69l248 -422l-47 -166l-99 26zM521 551l26 99l168 -43l244 -419l-71 -266z" />
<glyph unicode="]" horiz-adv-x="642" d="M43 0l195 194h88l193 -194h-476zM43 1303h476l-193 -195h-88zM361 231v262l123 121l73 -72v-505zM361 810v262l196 194v-505l-73 -74z" />
<glyph unicode="^" horiz-adv-x="949" d="M88 802v138l361 363v-275l-226 -226h-135zM499 1028v275l363 -363v-138h-138z" />
<glyph unicode="_" horiz-adv-x="964" d="M0 -251l97 96h771l96 -96l-96 -97h-771z" />
<glyph unicode="`" horiz-adv-x="495" d="M88 1247l165 99l155 -264l-36 -132l-132 35z" />
<glyph unicode="a" d="M108 0v542l73 72l121 -121v-299zM108 761v505l194 -194v-262l-121 -123zM145 1303h752l-193 -195h-365zM218 652l97 96h413l97 -96l-97 -97h-413zM739 194v299l121 121l73 -72v-542zM739 810v262l194 194v-505l-73 -74z" />
<glyph unicode="b" d="M108 37v505l73 72l121 -121v-262zM108 761v505l194 -194v-262l-121 -123zM145 0l194 194h365l97 -97l-97 -97h-559zM145 1303h559l97 -97l-97 -98h-365zM218 652l97 96h413l97 -96l-97 -97h-413zM739 231v262l121 121l73 -72v-311l-97 -97zM739 810v262l97 97l97 -97 v-311l-73 -74z" />
<glyph unicode="c" d="M108 231l97 -97l97 97v262l-121 121l-73 -72v-311zM108 761v311l97 97l97 -97v-262l-121 -123zM242 97l97 97h400l194 -194h-594zM242 1206l97 97h594l-194 -195h-400z" />
<glyph unicode="d" d="M108 37v505l73 72l121 -121v-262zM108 761v505l194 -194v-262l-121 -123zM145 0l194 194h365l97 -97l-97 -97h-559zM145 1303h559l97 -97l-97 -98h-365zM739 231v262l121 121l73 -72v-311l-97 -97zM739 810v262l97 97l97 -97v-311l-73 -74z" />
<glyph unicode="e" d="M108 37v505l73 72l121 -121v-262zM108 761v505l194 -194v-262l-121 -123zM145 0l194 194h400l194 -194h-788zM145 1303h788l-194 -195h-400zM218 652l97 96h413l97 -96l-97 -97h-413z" />
<glyph unicode="f" d="M108 37v505l73 72l121 -121v-262zM108 761v505l194 -194v-262l-121 -123zM145 1303h788l-194 -195h-400zM218 652l97 96h413l97 -96l-97 -97h-413z" />
<glyph unicode="g" d="M108 231v339l73 72l121 -121v-290l-97 -97zM108 788v284l97 97l97 -97v-236l-121 -121zM242 97l97 -97h365l97 97l-97 97h-365zM242 1206l97 97h594l-194 -195h-400zM411 678l97 98h220l97 -98l-97 -97h-220zM739 231v290l121 121l73 -72v-339l-97 -97z" />
<glyph unicode="h" d="M108 0v542l73 72l121 -121v-299zM108 761v542l194 -195v-298l-121 -123zM218 652l97 96h413l97 -96l-97 -97h-413zM739 194v299l121 121l73 -72v-542zM739 810v298l194 195v-542l-73 -74z" />
<glyph unicode="i" horiz-adv-x="584" d="M195 194v299l122 121l72 -72v-542zM195 810v298l194 195v-542l-72 -74z" />
<glyph unicode="j" d="M108 231l97 -97l97 97v175l-121 123l-73 -75v-223zM242 97l97 97h365l97 -97l-97 -97h-365zM739 231v262l121 121l73 -72v-311l-97 -97zM739 810v298l194 195v-542l-73 -74z" />
<glyph unicode="k" d="M108 0v542l73 72l121 -121v-299zM108 761v542l194 -195v-298l-121 -123zM218 652l97 96h413l97 -96l-97 -97h-413zM350 801v139l365 363h138v-139l-365 -363h-138zM739 194v299l121 121l73 -72v-542z" />
<glyph unicode="l" d="M108 37v505l73 72l121 -121v-262zM108 761v542l194 -195v-298l-121 -123zM145 0l194 194h400l194 -194h-788z" />
<glyph unicode="m" d="M108 0v542l73 72l121 -121v-299zM108 761v505l194 -194v-262l-121 -123zM145 1303h752l-193 -195h-365zM430 585v381l99 97l97 -97v-381l-97 -99zM739 194v299l121 121l73 -72v-542zM739 810v262l194 194v-505l-73 -74z" />
<glyph unicode="n" d="M108 0v542l73 72l121 -121v-299zM108 761v542l194 -195v-298l-121 -123zM160 1303h283l251 -266v-140h-137zM739 194v299l121 121l73 -72v-542zM739 810v298l194 195v-542l-73 -74z" />
<glyph unicode="o" d="M108 231l97 -97l97 97v262l-121 121l-73 -72v-311zM108 761v311l97 97l97 -97v-262l-121 -123zM242 97l97 97h365l97 -97l-97 -97h-365zM242 1206l97 97h365l97 -97l-97 -98h-365zM739 231v262l121 121l73 -72v-311l-97 -97zM739 810v262l97 97l97 -97v-311l-73 -74z" />
<glyph unicode="p" d="M108 0v542l73 72l121 -121v-299zM108 761v505l194 -194v-262l-121 -123zM145 1303h559l97 -97l-97 -98h-365zM218 652l97 96h413l97 -96l-97 -97h-413zM739 810v262l97 97l97 -97v-311l-73 -74z" />
<glyph unicode="q" d="M108 231l97 -97l97 97v288l-121 121l-73 -72v-337zM108 788v284l97 97l97 -97v-236l-121 -121zM242 97l97 97h190l97 -97l-97 -97h-190zM242 1206l97 97h365l97 -97l-97 -98h-365zM564 231v140h140l229 -231v-140h-138zM739 406v113l121 121l73 -72v-162l-97 -97z M739 836v236l97 97l97 -97v-284l-73 -73z" />
<glyph unicode="r" d="M108 0v542l73 72l121 -121v-299zM108 761v505l194 -194v-262l-121 -123zM145 1303h559l97 -97l-97 -98h-365zM218 652l97 96h413l97 -96l-97 -97h-413zM389 372v138h140l372 -370v-140h-140zM739 810v262l97 97l97 -97v-311l-73 -74z" />
<glyph unicode="s" d="M108 97l97 97h499l97 -97l-97 -97h-499zM108 761v311l97 97l97 -97v-262l-121 -123zM218 652l97 96h413l97 -96l-97 -97h-413zM242 1206l97 97h497l97 -97l-97 -98h-497zM739 231v262l121 121l73 -72v-311l-97 -97z" />
<glyph unicode="t" d="M65 1206l97 97h717l98 -97l-98 -98h-717zM424 89v404l122 121l72 -72v-453l-97 -96zM424 810v149l97 97l97 -97v-198l-72 -74z" />
<glyph unicode="u" d="M108 231l97 -97l97 97v262l-121 121l-73 -72v-311zM108 761v542l194 -195v-298l-121 -123zM242 97l97 97h365l97 -97l-97 -97h-365zM739 231v262l121 121l73 -72v-311l-97 -97zM739 810v298l194 195v-542l-73 -74z" />
<glyph unicode="v" horiz-adv-x="999" d="M108 93v469l73 73l121 -123v-419l-97 -99zM108 780v523l194 -195v-278l-121 -123zM363 93v138l344 370l153 34l-13 -171l-346 -371h-138zM739 830v278l194 195v-523l-73 -73z" />
<glyph unicode="w" d="M108 37v505l73 72l121 -121v-262zM108 761v542l194 -195v-298l-121 -123zM145 0l194 194h365l193 -194h-752zM430 335v384l99 98l97 -98v-384l-97 -97zM739 231v262l121 121l73 -72v-505zM739 810v298l194 195v-542l-73 -74z" />
<glyph unicode="x" horiz-adv-x="999" d="M108 0v190l279 424h99v-214l-263 -400h-115zM108 1113v190h114l264 -402v-214h-99zM559 402v212h98l276 -424v-190h-112zM559 687v214l262 402h112v-190l-276 -426h-98z" />
<glyph unicode="y" d="M108 761l73 -74l121 123v298l-194 195v-542zM181 97l96 97h427l97 -97l-97 -97h-427zM218 652l97 96h413l97 -96l-97 -97h-413zM739 231v262l121 121l73 -72v-311l-97 -97zM739 810v298l194 195v-542l-73 -74z" />
<glyph unicode="z" d="M108 97l97 97h512l193 -194h-705zM108 1303h728l97 -97l-97 -98h-534zM205 238v134l177 261l104 9l22 -169l-158 -235h-145zM501 773l197 290h138v-143l-155 -231l-173 -19z" />
<glyph unicode="{" horiz-adv-x="804" d="M43 652l98 96h95l97 -96l-97 -97h-95zM249 231v262l122 121l72 -72v-311l-97 -97zM249 810v262l97 97l97 -97v-311l-72 -74zM382 97l96 97h88l195 -194h-283zM382 1206l96 97h283l-195 -195h-88z" />
<glyph unicode="|" horiz-adv-x="646" d="M227 -348v1651h192v-1651h-192z" />
<glyph unicode="}" horiz-adv-x="804" d="M43 0l195 194h88l97 -97l-97 -97h-283zM43 1303h283l97 -97l-97 -98h-88zM361 231v311l75 72l121 -121v-262l-97 -97zM361 761v311l99 97l97 -97v-262l-121 -123zM471 652l97 96h95l98 -96l-98 -97h-95z" />
<glyph unicode="~" horiz-adv-x="867" d="M88 484v177q37 43 78 62.5t87 19.5q76 0 196 -52q74 -32 134 -32q52 0 98.5 27t98.5 83v-184q-60 -80 -203 -80q-34 0 -62.5 3.5t-56.5 12t-97 41.5q-50 24 -85 24q-41 0 -84.5 -22t-103.5 -80z" />
<glyph unicode="&#xad;" horiz-adv-x="962" d="M88 652l96 96h594l97 -96l-97 -97h-594z" />
<glyph unicode="&#x2000;" horiz-adv-x="799" />
<glyph unicode="&#x2001;" horiz-adv-x="1599" />
<glyph unicode="&#x2002;" horiz-adv-x="799" />
<glyph unicode="&#x2003;" horiz-adv-x="1599" />
<glyph unicode="&#x2004;" horiz-adv-x="533" />
<glyph unicode="&#x2005;" horiz-adv-x="399" />
<glyph unicode="&#x2006;" horiz-adv-x="266" />
<glyph unicode="&#x2007;" horiz-adv-x="266" />
<glyph unicode="&#x2008;" horiz-adv-x="199" />
<glyph unicode="&#x2009;" horiz-adv-x="319" />
<glyph unicode="&#x200a;" horiz-adv-x="88" />
<glyph unicode="&#x2010;" horiz-adv-x="962" d="M88 652l96 96h594l97 -96l-97 -97h-594z" />
<glyph unicode="&#x2011;" horiz-adv-x="962" d="M88 652l96 96h594l97 -96l-97 -97h-594z" />
<glyph unicode="&#x2012;" horiz-adv-x="962" d="M88 652l96 96h594l97 -96l-97 -97h-594z" />
<glyph unicode="&#x2013;" horiz-adv-x="955" d="M88 652q0 162 114.5 276.5t274.5 114.5q164 0 277.5 -114t113.5 -277q0 -162 -114.5 -276.5t-276.5 -114.5t-275.5 113.5t-113.5 277.5z" />
<glyph unicode="&#x2014;" horiz-adv-x="990" d="M-4 652l71 69h849l71 -69l-71 -69h-849z" />
<glyph unicode="&#x2019;" horiz-adv-x="368" d="M88 946v260l96 97l97 -97v-260h-193z" />
<glyph unicode="&#x201c;" horiz-adv-x="368" d="M88 1044v259h193v-259l-97 -98z" />
<glyph unicode="&#x201d;" horiz-adv-x="633" d="M88 946v260l96 97l97 -97v-260h-193zM350 946v260l99 97l97 -97v-260h-196z" />
<glyph unicode="&#x2022;" horiz-adv-x="633" d="M88 1044v259h193v-259l-97 -98zM350 1044v259h196v-259l-97 -98z" />
<glyph unicode="&#x202f;" horiz-adv-x="319" />
<glyph unicode="&#x205f;" horiz-adv-x="399" />
<glyph unicode="&#x25fc;" horiz-adv-x="1303" d="M0 0v1303h1303v-1303h-1303z" />
</font>
</defs>
</svg>
